Дикие Истории HD | Relatos Salvajes (2014) BDRip HD 1080p | iTunes Russia

Ответить на тему
Статистика раздачи [Обновить пиров]
Размер:  10,34 GB   |    Зарегистрирован:  5 месяцев 16 дней   |    Скачан:  194 раз
Сидов:  7  [  0 KB/s  ]  
   
 
Автор Сообщение

Серафима ®

Стаж: 2 года 9 месяцев

Сообщений: 38

Создавать темы27-Сен-2015 20:26

[Цитировать]

Название: Дикие истории;
Оригинальное название: Relatos Salvajes;
Год выхода: 2014;
Жанр: триллер, драма, комедия;
Страна: Аргентина, Испания;
Студия: Corner Producciones, El Deseo S.A., Kramer & Sigman Films;
Продолжительность: 02:01:59;
Перевод: Профессиональный (полное дублирование) iTunes Russia.
Режиссер: Дамиан Сифрон.
В ролях: Рикардо Дарин, Оскар Мартинес, Леонардо Сбараглиа, Хульета Сильберберг, Дарио Грандинетти, Лилиана Экерман, Луис Мануэль, Альтамирано Гарсиа, Алехандро Анджелини, Дамиан Бенитес, Кристина Бланко.
О фильме: Гэбриела Пастернака обижали многие, с кем сводила его жизнь — девушка, учитель музыки, профессор в консерватории, дантист. И вот все они, на свою беду, оказались вместе с ним в одном самолете... Ночью в придорожной закусочной официантка узнает в посетителе ростовщика, который много лет назад довел до самоубийства ее отца. А у поварихи, в прошлом отсидевшей срок, для мести такому гаду сразу нашлось средство — крысиный яд… Городской красавчик ехал на своей мощной Audi по пустынной дороге и решил обогнать старый Peugeot, но сидевший за рулем провинциальный упырь решил не уступать. И вот уже кровавый итог бессмысленного соперничества не за горами...
Формат: Matroska;
Видео: 1916x804 at 23.976 fps, x264@L4.1, ~10.9 Мbps avg;
Aудио#1: Russian: 48 kHz, AC3, 3/2 (L,C,R,l,r) + LFE ch, ~384.00 kbps avg |Дубляж, iTunes Russia;
Aудио#2: Spanish: 48 kHz, AC3, 3/2 (L,C,R,l,r) + LFE ch, ~640.00 kbps avg;
Субтитры: English, Spanish, Spanish (SDH).
MI
General
Unique ID : 244120076630850891966757999737226932579 (0xB7A7D10A235F4C19A6931AB4B1783163)
Complete name : Wild.Tales.2014.1080p.BluRay.DD5.1.x264.Rus.Spa.Subs-EbP.mkv
Format : Matroska
Format version : Version 4 / Version 2
File size : 10.3 GiB
Duration : 2h 1mn
Overall bit rate : 12.1 Mbps
Movie name : Friday@EbP
Encoded date : UTC 2015-02-28 19:41:08
Writing application : mkvmerge v6.5.0 ('Isn't she lovely') built on Oct 20 2013 12:50:05
Writing library : libebml v1.3.0 + libmatroska v1.4.1
Video
ID : 1
Format : AVC
Format/Info : Advanced Video Codec
Format profile : High@L4.1
Format settings, CABAC : Yes
Format settings, ReFrames : 5 frames
Codec ID : V_MPEG4/ISO/AVC
Duration : 2h 1mn
Bit rate : 10.9 Mbps
Width : 1 916 pixels
Height : 804 pixels
Display aspect ratio : 2.40:1
Frame rate mode : Constant
Frame rate : 23.976 fps
Color space : YUV
Chroma subsampling : 4:2:0
Bit depth : 8 bits
Scan type : Progressive
Bits/(Pixel*Frame) : 0.294
Stream size : 9.26 GiB (90%)
Title : Relatos salvajes (2014)
Writing library : x264 core 146 r2538 121396c
Encoding settings : cabac=1 / ref=5 / deblock=1:-3:-3 / analyse=0x3:0x133 / me=umh / subme=10 / psy=1 / psy_rd=0.95:0.00 / mixed_ref=1 / me_range=16 / chroma_me=1 / trellis=2 / 8x8dct=1 / cqm=0 / deadzone=21,11 / fast_pskip=0 / chroma_qp_offset=-2 / threads=12 / lookahead_threads=2 / sliced_threads=0 / nr=0 / decimate=0 / interlaced=0 / bluray_compat=0 / constrained_intra=0 / bframes=7 / b_pyramid=2 / b_adapt=2 / b_bias=0 / direct=3 / weightb=1 / open_gop=0 / weightp=2 / keyint=250 / keyint_min=23 / scenecut=40 / intra_refresh=0 / rc=crf / mbtree=0 / crf=16.2 / qcomp=0.60 / qpmin=0 / qpmax=69 / qpstep=4 / ip_ratio=1.40 / pb_ratio=1.30 / aq=3:0.70 / zones=165354,175484,crf=21
Language : Spanish
Default : Yes
Forced : No
Audio #1
ID : 2
Format : AC-3
Format/Info : Audio Coding 3
Mode extension : CM (complete main)
Format settings, Endianness : Big
Codec ID : A_AC3
Duration : 2h 1mn
Bit rate mode : Constant
Bit rate : 384 Kbps
Channel(s) : 6 channels
Channel positions : Front: L C R, Side: L R, LFE
Sampling rate : 48.0 KHz
Bit depth : 16 bits
Compression mode : Lossy
Stream size : 335 MiB (3%)
Language : Russian
Default : Yes
Forced : No
Audio #2
ID : 3
Format : AC-3
Format/Info : Audio Coding 3
Mode extension : CM (complete main)
Format settings, Endianness : Big
Codec ID : A_AC3
Duration : 2h 1mn
Bit rate mode : Constant
Bit rate : 640 Kbps
Channel(s) : 6 channels
Channel positions : Front: L C R, Side: L R, LFE
Sampling rate : 48.0 KHz
Bit depth : 16 bits
Compression mode : Lossy
Stream size : 558 MiB (5%)
Title : AC-3 5.1 @ 640 Kbps
Language : Spanish
Default : No
Forced : No
Text #1
ID : 4
Format : UTF-8
Codec ID : S_TEXT/UTF8
Codec ID/Info : UTF-8 Plain Text
Language : English
Default : No
Forced : No
Text #2
ID : 5
Format : UTF-8
Codec ID : S_TEXT/UTF8
Codec ID/Info : UTF-8 Plain Text
Language : Spanish
Default : No
Forced : No
Text #3
ID : 6
Format : UTF-8
Codec ID : S_TEXT/UTF8
Codec ID/Info : UTF-8 Plain Text
Title : SDH
Language : Spanish
Default : No
Forced : No
Menu
00:00:00.000 : en:00:00:00.000
00:08:48.820 : en:00:08:48.820
00:20:34.275 : en:00:20:34.275
00:38:56.334 : en:00:38:56.334
01:01:52.709 : en:01:01:52.709
01:25:29.124 : en:01:25:29.124
Скриншоты



[torrent.sirius.org.ru].t160.torrent 
Торрент: Зарегистрирован [ 2018.02.01 15:10 ]

Скачать .torrent

Скачать

52 KB

Статус: проверено
Скачан: 194 раз
Размер: 10,34 GB
  Правообладателям
Похожие темы на Дикие Истории HD | Relatos Salvajes (2014) BDRip HD 1080p | iTunes Russia
Форум Тема Автор Торрент Отв. Посл. сообщение
./styles/templates/default/images/folder_dl.gif Зарубежное кино Дикие истории | Relatos Salvajes (2014) HDRip Miyama 0 | 0
2,17 GB

0 | 1141

0

2015.09.27 20:06
Miyama Последнее
[Профиль][ЛС]
Показать сообщения:    
Ответить на тему