Королевство обезьян | Monkey Kingdom (2015) BDRip 1080p | Лицензия

Ответить на тему
Статистика раздачи [Обновить пиров]
Размер:  7,76 GB   |    Зарегистрирован:  4 месяца 17 дней   |    Скачан:  185 раз

Полного источника не было: 16 дней

   
 
Автор Сообщение

Bambus ®

Стаж: 2 года 9 месяцев

Сообщений: 143

Создавать темы23-Сен-2015 10:56

[Цитировать]

«Adventure is in full swing»


Русское название: Королевство обезьян
Оригинальное название: Monkey Kingdom
Год выпуска: 2015
Жанр: документальный
Выпущено: США
Режиссер: Марк Линфилд, Аластер Фовергилл
Перевод: Дублированный - [Лицензия]
Сюжет фильма: Документальный фильм о природе, который показывает, как новорождённая обезьянка и её мать пытаются выжить в раздираемой конкуренцией социальной иерархии Храма - действующей группировки обезьян, живущих в древних руинах в дебрях легендарных джунглей Южной Азии.
Качество: BDRip 1080p
Формат: AVC (библиотека кодирования x.264)
Контейнер (Расширение): MKV
Видео: 1916x1038, 12455 Кбит/сек, 23,976 кадр/сек, 0,261 Бит/[Пиксели*Кадры]
Аудио №1: русский / AC3 / 5.1 / 48 kHz / 640 kbps / |Дублированный|
Аудио №2: английский / AC3 / 5.1 / 48 kHz / 640 kbps /
Субтитры: русские
Навигация по главам (Чаптеры): есть
Продолжительность: 01:20:52
MediaInfo
Format : Matroska
Format version : Version 2
File size : 7.76 GiB
Duration : 1h 20mn
Overall bit rate : 13.7 Mbps
Movie name : Monkey Kingdom.(2015).BDRip.1080p.[denis100]
Encoded date : UTC 2015-09-22 13:43:54
Writing application : mkvmerge v5.8.0 ('No Sleep / Pillow') built on Sep 2 2012 15:37:04
Writing library : libebml v1.2.3 + libmatroska v1.3.0
Video
ID : 1
Format : AVC
Format/Info : Advanced Video Codec
Format profile : High@L4.1
Format settings, CABAC : Yes
Format settings, ReFrames : 4 frames
Codec ID : V_MPEG4/ISO/AVC
Duration : 1h 20mn
Bit rate : 12.5 Mbps
Width : 1 916 pixels
Height : 1 038 pixels
Display aspect ratio : 16:9
Frame rate : 23.976 fps
Color space : YUV
Chroma subsampling : 4:2:0
Bit depth : 8 bits
Scan type : Progressive
Bits/(Pixel*Frame) : 0.261
Stream size : 6.88 GiB (89%)
Title : Monkey Kingdom.(2015).BDRip.1080p.[denis100]
Writing library : x264 core 148 r2597 e86f3a1
Encoding settings : cabac=1 / ref=4 / deblock=1:-3:-3 / analyse=0x3:0x133 / me=umh / subme=11 / psy=1 / psy_rd=1.00:0.00 / mixed_ref=1 / me_range=32 / chroma_me=1 / trellis=2 / 8x8dct=1 / cqm=0 / deadzone=21,11 / fast_pskip=0 / chroma_qp_offset=-2 / threads=6 / lookahead_threads=1 / sliced_threads=0 / nr=0 / decimate=1 / interlaced=0 / bluray_compat=0 / constrained_intra=0 / bframes=9 / b_pyramid=2 / b_adapt=2 / b_bias=0 / direct=1 / weightb=1 / open_gop=0 / weightp=2 / keyint=240 / keyint_min=23 / scenecut=40 / intra_refresh=0 / rc=2pass / mbtree=0 / bitrate=12455 / ratetol=1.0 / qcomp=0.60 / qpmin=0 / qpmax=69 / qpstep=4 / cplxblur=20.0 / qblur=0.5 / ip_ratio=1.40 / pb_ratio=1.30 / aq=2:1.00
Language : English
Default : Yes
Forced : No
Audio #1
ID : 2
Format : AC-3
Format/Info : Audio Coding 3
Mode extension : CM (complete main)
Codec ID : A_AC3
Duration : 1h 20mn
Bit rate mode : Constant
Bit rate : 640 Kbps
Channel(s) : 6 channels
Channel positions : Front: L C R, Side: L R, LFE
Sampling rate : 48.0 KHz
Bit depth : 16 bits
Compression mode : Lossy
Stream size : 370 MiB (5%)
Title : дублированный
Language : Russian
Default : Yes
Forced : No
Audio #2
ID : 3
Format : AC-3
Format/Info : Audio Coding 3
Mode extension : CM (complete main)
Codec ID : A_AC3
Duration : 1h 20mn
Bit rate mode : Constant
Bit rate : 640 Kbps
Channel(s) : 6 channels
Channel positions : Front: L C R, Side: L R, LFE
Sampling rate : 48.0 KHz
Bit depth : 16 bits
Compression mode : Lossy
Stream size : 370 MiB (5%)
Language : English
Default : No
Forced : No
Text
ID : 4
Format : UTF-8
Codec ID : S_TEXT/UTF8
Codec ID/Info : UTF-8 Plain Text
Language : Russian
Default : No
Forced : No
Menu
00:00:00.000 : en:00:00:00.000
00:06:52.037 : en:00:06:52.037
00:09:31.946 : en:00:09:31.946
00:16:18.060 : en:00:16:18.060
00:24:23.003 : en:00:24:23.003
00:29:45.701 : en:00:29:45.701
00:31:50.826 : en:00:31:50.826
00:37:37.589 : en:00:37:37.589
00:41:30.154 : en:00:41:30.154
00:46:28.953 : en:00:46:28.953
00:50:51.548 : en:00:50:51.548
00:55:42.422 : en:00:55:42.422
01:06:12.552 : en:01:06:12.552
01:16:21.827 : en:01:16:21.827
x264
x264 [info]: frame I:1020 Avg QP:13.93 size:421135
x264 [info]: frame P:28183 Avg QP:16.19 size:130055
x264 [info]: frame B:87151 Avg QP:18.14 size: 39671
x264 [info]: consecutive B-frames: 3.2% 3.3% 10.7% 30.5% 18.8% 26.5% 4.0% 1.5% 0.9% 0.7%
Скриншоты



[torrent.sirius.org.ru].t117.torrent 
Торрент: Зарегистрирован [ 2018.02.01 14:22 ]

Скачать .torrent

Скачать

40 KB

Статус: проверено
Скачан: 185 раз
Размер: 7,76 GB
  Правообладателям
[Профиль][ЛС]
Показать сообщения:    
Ответить на тему